<?xml version="1.0" standalone="no"?>
<!DOCTYPE svg PUBLIC "-//W3C//DTD SVG 1.1//EN" "http://www.w3.org/Graphics/SVG/1.1/DTD/svg11.dtd" >
<svg xmlns="http://www.w3.org/2000/svg">
<metadata></metadata>
<defs>
<font id="gotham_htfbook" horiz-adv-x="1617" >
<font-face units-per-em="2048" ascent="1638" descent="-410" />
<missing-glyph horiz-adv-x="614" />
<glyph horiz-adv-x="2048" />
<glyph horiz-adv-x="2048" />
<glyph unicode="&#xd;" horiz-adv-x="2048" />
<glyph unicode=" "  horiz-adv-x="614" />
<glyph unicode="&#x09;" horiz-adv-x="614" />
<glyph unicode="&#xa0;" horiz-adv-x="614" />
<glyph unicode="!" horiz-adv-x="555" d="M184 0v215h189v-215h-189zM186 1317v117h185v-117l-49 -911h-89z" />
<glyph unicode="&#x22;" horiz-adv-x="901" d="M133 877l62 557h190v-11l-166 -546h-86zM532 877l64 557h188v-11l-166 -546h-86z" />
<glyph unicode="#" horiz-adv-x="1433" d="M92 362v142h248l76 434h-244v141h266l62 355h143l-59 -355h389l61 355h144l-60 -355h221v-141h-245l-76 -434h242v-142h-265l-63 -362h-144l62 362h-389l-64 -362h-143l61 362h-223zM485 504h389l74 434h-389z" />
<glyph unicode="$" horiz-adv-x="1302" d="M115 215l92 123q97 -87 191.5 -135t205.5 -60v512q-230 55 -333 147.5t-103 252.5q0 158 120.5 264t309.5 115v118h131v-122q203 -18 391 -164l-88 -123q-139 119 -309 147v-504q233 -54 337.5 -148t104.5 -251q0 -164 -120.5 -269.5t-315.5 -117.5v-201h-131v205 q-265 23 -483 211zM326 1065q0 -94 58.5 -151.5t219.5 -98.5v481q-126 -4 -202 -69.5t-76 -161.5zM723 137q130 6 207.5 72t77.5 168q0 96 -61 153t-224 97v-490z" />
<glyph unicode="%" horiz-adv-x="1708" d="M106 1081q0 152 92 260.5t236 108.5q141 0 231.5 -107.5t90.5 -257.5q0 -152 -91.5 -260t-234.5 -108q-95 0 -170 50.5t-114.5 133t-39.5 180.5zM244 1085q0 -108 55 -181t135 -73q82 0 134.5 72t52.5 178q0 108 -56 181t-135 73q-83 0 -134.5 -71.5t-51.5 -178.5zM254 0 l1053 1434h145l-1051 -1434h-147zM952 348q0 152 91.5 260.5t234.5 108.5q142 0 231.5 -107t89.5 -258q0 -152 -90.5 -260t-234.5 -108q-141 0 -231.5 107t-90.5 257zM1087 352q0 -108 55.5 -181t135.5 -73q83 0 134.5 71.5t51.5 178.5q0 108 -55 181t-135 73 q-82 0 -134.5 -72t-52.5 -178z" />
<glyph unicode="&#x26;" horiz-adv-x="1425" d="M92 383q0 280 346 416q-76 89 -109.5 161t-33.5 156q0 145 106 243.5t273 98.5q150 0 249 -93.5t99 -231.5q0 -134 -87 -225.5t-251 -149.5l328 -334q94 138 172 319l133 -61q-107 -229 -207 -360l250 -256l-123 -95l-225 232q-207 -223 -469 -223q-196 0 -323.5 112 t-127.5 291zM256 389q0 -118 84 -195t215 -77q190 0 358 186l-383 395q-138 -51 -206 -132t-68 -177zM451 1116q0 -64 30.5 -121t112.5 -145q139 46 207.5 113t68.5 161q0 88 -57 144.5t-145 56.5q-96 0 -156.5 -59.5t-60.5 -149.5z" />
<glyph unicode="'" horiz-adv-x="501" d="M133 877l62 557h192v-11l-166 -546h-88z" />
<glyph unicode="(" horiz-adv-x="888" d="M139 588q0 279 145.5 499.5t422.5 376.5l67 -104q-237 -152 -356 -341t-119 -431t119 -431t356 -341l-67 -105q-277 156 -422.5 377t-145.5 500z" />
<glyph unicode=")" horiz-adv-x="888" d="M115 -184q237 152 356 341t119 431t-119 431t-356 341l67 104q277 -156 422.5 -376.5t145.5 -499.5t-145.5 -500t-422.5 -377z" />
<glyph unicode="*" horiz-adv-x="880" d="M141 1016l238 108l-238 111l56 94l211 -147l-21 256h107l-21 -256l211 147l55 -94l-237 -111l237 -108l-55 -96l-211 149l21 -256h-107l21 256l-211 -149z" />
<glyph unicode="+" horiz-adv-x="1310" d="M154 647v148h426v422h151v-422h426v-148h-426v-422h-151v422h-426z" />
<glyph unicode="," horiz-adv-x="501" d="M94 -178q77 28 110 70t27 108h-73v215h188v-184q0 -123 -54 -188.5t-173 -92.5z" />
<glyph unicode="-" horiz-adv-x="835" d="M133 532v166h569v-166h-569z" />
<glyph unicode="." horiz-adv-x="501" d="M158 0v215h188v-215h-188z" />
<glyph unicode="/" horiz-adv-x="1040" d="M-43 -262l950 1896h146l-951 -1896h-145z" />
<glyph unicode="0" horiz-adv-x="1464" d="M127 715q0 202 73.5 370.5t214 270.5t320.5 102q179 0 318 -101t211.5 -268.5t72.5 -369.5t-73.5 -371t-213.5 -271t-319 -102q-180 0 -319.5 101.5t-212 268.5t-72.5 370zM295 719q0 -159 53 -294.5t155 -218.5t232 -83q98 0 180.5 48t137.5 129.5t85.5 189t30.5 225.5 t-31 226t-87 190t-139 131t-181 49t-181 -48t-138 -129t-86 -188.5t-31 -226.5z" />
<glyph unicode="1" horiz-adv-x="733" d="M57 1323l351 121h118v-1444h-159v1276l-271 -84z" />
<glyph unicode="2" horiz-adv-x="1226" d="M98 0v125l520 459q168 151 234 248t66 202q0 123 -84 199t-205 76q-118 0 -206 -59.5t-179 -186.5l-119 86q69 103 136 166.5t162.5 101t217.5 37.5q195 0 319.5 -115t124.5 -292q0 -79 -20 -144.5t-68 -133.5t-110 -130.5t-164 -151.5l-383 -340h760v-147h-1002z" />
<glyph unicode="3" horiz-adv-x="1255" d="M102 231l117 105q175 -213 420 -213q133 0 223 77.5t90 202.5q0 132 -109.5 205.5t-291.5 73.5h-92l-33 96l453 510h-701v146h916v-119l-451 -500q98 -8 181 -35.5t149.5 -75t104.5 -123t38 -171.5q0 -126 -64 -226t-173.5 -154.5t-241.5 -54.5q-173 0 -308 68t-227 188z " />
<glyph unicode="4" horiz-adv-x="1374" d="M88 457l811 987h141v-969h224v-135h-224v-340h-155v340h-756zM283 475h602v739z" />
<glyph unicode="5" horiz-adv-x="1253" d="M109 203l106 116q202 -196 408 -196q153 0 249.5 90t96.5 229q0 135 -99.5 219t-257.5 84q-150 0 -301 -81l-108 71l41 699h825v-150h-684l-31 -459q145 64 283 64q140 0 252 -52t178 -153t66 -235q0 -211 -143.5 -342.5t-368.5 -131.5q-146 0 -277 62t-235 166z" />
<glyph unicode="6" horiz-adv-x="1325" d="M125 678q0 164 41 306.5t116 247.5t188 165.5t251 60.5q123 0 223.5 -41.5t200.5 -122.5l-94 -125q-84 71 -164 106.5t-174 35.5q-193 0 -307.5 -176t-112.5 -457q149 219 407 219q135 0 247 -53.5t180.5 -155.5t68.5 -233q0 -208 -147 -344t-367 -136q-231 0 -377 146 q-92 92 -136 219t-44 338zM322 442q0 -140 102 -231.5t260 -91.5q155 0 250.5 94.5t95.5 235.5q0 134 -98 221.5t-252 87.5q-156 0 -257 -95t-101 -221z" />
<glyph unicode="7" horiz-adv-x="1220" d="M139 1286v148h973v-121l-651 -1313h-180l647 1286h-789z" />
<glyph unicode="8" horiz-adv-x="1290" d="M106 387q0 124 80 215t215 139q-245 112 -245 332q0 109 67.5 197t179 136t242.5 48t242.5 -48t179.5 -136t68 -197q0 -219 -246 -332q135 -50 215 -139.5t80 -212.5q0 -121 -71 -214.5t-193.5 -144t-274.5 -50.5q-232 0 -385.5 114t-153.5 293zM270 391 q0 -114 101.5 -192t273.5 -78t273.5 78t101.5 192q0 120 -108 197.5t-267 77.5t-267 -77.5t-108 -197.5zM317 1063q0 -117 94.5 -190.5t233.5 -73.5t233.5 73.5t94.5 190.5q0 107 -94 178.5t-234 71.5t-234 -71t-94 -179z" />
<glyph unicode="9" horiz-adv-x="1325" d="M129 969q0 208 145 348.5t371 140.5q230 0 377 -147q89 -89 133.5 -219t44.5 -338q0 -226 -74.5 -403.5t-210.5 -276.5t-311 -99q-130 0 -235 46.5t-207 130.5l94 124q90 -78 174 -115.5t178 -37.5q127 0 225.5 80.5t151 223.5t49.5 325q-144 -230 -405 -230 q-221 0 -360.5 125.5t-139.5 321.5zM295 977q0 -139 98 -227t254 -88q158 0 257.5 97t99.5 228q0 140 -103 234t-262 94q-156 0 -250 -98.5t-94 -239.5z" />
<glyph unicode=":" horiz-adv-x="522" d="M168 0v215h188v-215h-188zM168 844v215h188v-215h-188z" />
<glyph unicode=";" horiz-adv-x="522" d="M104 -178q77 28 110.5 70.5t27.5 107.5h-74v215h188v-184q0 -123 -54 -188.5t-173 -92.5zM168 844v215h188v-215h-188z" />
<glyph unicode="&#x3c;" horiz-adv-x="1310" d="M147 653v135l961 478v-158l-789 -385l789 -387v-160z" />
<glyph unicode="=" horiz-adv-x="1310" d="M184 406v151h942v-151h-942zM184 885v151h942v-151h-942z" />
<glyph unicode="&#x3e;" horiz-adv-x="1310" d="M203 176v158l788 385l-788 387v160l960 -478v-135z" />
<glyph unicode="?" horiz-adv-x="1099" d="M61 1214q95 114 211 176t271 62q205 0 331.5 -114.5t126.5 -293.5q0 -94 -33.5 -169t-93 -124.5t-134.5 -80t-165 -43.5l-20 -221h-104l-31 331l10 11q197 4 302.5 81t105.5 209q0 115 -82 192t-217 77q-207 0 -373 -193zM408 0v215h188v-215h-188z" />
<glyph unicode="@" horiz-adv-x="2007" d="M109 561q0 181 70 346t189.5 286t286 193t351.5 72q184 0 350.5 -67t284.5 -178t187.5 -259.5t69.5 -306.5q0 -125 -33 -224t-88 -158t-121.5 -89.5t-139.5 -30.5q-109 0 -183 46.5t-104 125.5q-146 -172 -338 -172q-154 0 -260.5 104t-106.5 269q0 106 41.5 202 t108.5 162.5t152 106t171 39.5q202 0 299 -170l27 141l137 -18l-82 -465q-14 -80 -14 -125q0 -78 45.5 -122t128.5 -44q119 0 203 108.5t84 313.5q0 140 -63 274.5t-170 238t-261 166.5t-325 63q-173 0 -327 -66t-262.5 -177t-171.5 -264t-63 -321q0 -136 39.5 -261 t114.5 -226.5t177 -177t233 -117t276 -41.5q149 0 268 33.5t242 105.5l33 -55q-253 -154 -543 -154q-129 0 -249.5 32.5t-220.5 90.5t-183 140.5t-140 180.5t-88.5 213t-31.5 236zM672 528q0 -119 69.5 -187.5t180.5 -68.5q132 0 233.5 112t101.5 257q0 112 -71 186t-178 74 q-132 0 -234 -109t-102 -264z" />
<glyph unicode="A" d="M80 0l653 1444h152l653 -1444h-174l-168 379h-780l-170 -379h-166zM479 524h654l-326 731z" />
<glyph unicode="B" horiz-adv-x="1478" d="M203 0v1434h610q213 0 340 -97.5t127 -261.5q0 -236 -227 -334q307 -92 307 -348q0 -184 -141 -288.5t-379 -104.5h-637zM362 145h482q163 0 257.5 68.5t94.5 189.5q0 119 -97.5 183.5t-283.5 64.5h-453v-506zM362 795h424q150 0 240 67t90 191q0 109 -82.5 172 t-234.5 63h-437v-493z" />
<glyph unicode="C" horiz-adv-x="1511" d="M139 715q0 152 54.5 288.5t149 237t230.5 159t291 58.5q182 0 311.5 -57.5t247.5 -169.5l-110 -119q-100 95 -207 146t-244 51q-156 0 -283.5 -77.5t-199.5 -212.5t-72 -300t72.5 -301t200 -214.5t282.5 -78.5q140 0 246.5 51t216.5 156l107 -105q-123 -124 -256.5 -188 t-317.5 -64q-122 0 -233.5 37t-199 104.5t-152.5 158.5t-99.5 204t-34.5 236z" />
<glyph unicode="D" horiz-adv-x="1601" d="M203 0v1434h497q166 0 309 -55t242 -150t155 -227t56 -283t-56 -283.5t-155 -228.5t-242 -151.5t-309 -55.5h-497zM365 150h335q177 0 313.5 75t208.5 203t72 287q0 119 -42.5 223.5t-118.5 181t-188 120.5t-245 44h-335v-1134z" />
<glyph unicode="E" horiz-adv-x="1372" d="M203 0v1434h1036v-148h-874v-489h782v-148h-782v-502h884v-147h-1046z" />
<glyph unicode="F" horiz-adv-x="1343" d="M203 0v1434h1030v-150h-868v-512h776v-147h-776v-625h-162z" />
<glyph unicode="G" horiz-adv-x="1605" d="M139 715q0 147 52.5 282.5t145 237.5t228.5 162.5t293 60.5q173 0 297 -47t238 -143l-105 -123q-93 80 -193.5 122t-242.5 42q-155 0 -280.5 -80t-195 -215t-69.5 -295q0 -262 155 -430t412 -168q118 0 227 40t187 103v357h-436v145h592v-571q-109 -98 -257 -159 t-319 -61q-220 0 -387.5 99.5t-254.5 266.5t-87 374z" />
<glyph unicode="H" horiz-adv-x="1556" d="M203 0v1434h162v-637h827v637h162v-1434h-162v645h-827v-645h-162z" />
<glyph unicode="I" horiz-adv-x="595" d="M217 0v1434h162v-1434h-162z" />
<glyph unicode="J" horiz-adv-x="1132" d="M63 233l117 101q70 -105 145 -155t183 -50q126 0 203 89.5t77 254.5v961h164v-959q0 -239 -123 -367t-323 -128q-288 0 -443 253z" />
<glyph unicode="K" horiz-adv-x="1472" d="M203 0v1434h162v-856l823 856h209l-615 -627l641 -807h-202l-551 694l-305 -309v-385h-162z" />
<glyph unicode="L" horiz-adv-x="1267" d="M203 0v1434h162v-1284h806v-150h-968z" />
<glyph unicode="M" horiz-adv-x="1777" d="M203 0v1434h164l522 -783l522 783h164v-1434h-162v1161l-522 -768h-8l-523 766v-1159h-157z" />
<glyph unicode="N" d="M203 0v1434h151l903 -1149v1149h158v-1434h-129l-926 1176v-1176h-157z" />
<glyph unicode="O" horiz-adv-x="1740" d="M139 715q0 148 54 283.5t148.5 237t233 162t297.5 60.5t297 -60t232 -160.5t147.5 -235.5t53.5 -283t-54 -283.5t-149 -237.5t-233.5 -162.5t-297.5 -60.5t-297 60t-231.5 161t-147 236t-53.5 283zM307 719q0 -163 72 -298.5t202 -215.5t291 -80t290 79t200.5 213.5 t71.5 297.5t-72.5 298.5t-202.5 215.5t-291 80t-290 -79t-200 -213.5t-71 -297.5z" />
<glyph unicode="P" horiz-adv-x="1368" d="M203 0v1434h536q245 0 391 -122.5t146 -334.5q0 -113 -45 -204t-122.5 -148.5t-178.5 -88t-217 -30.5h-348v-506h-162zM365 653h354q178 0 285.5 87.5t107.5 230.5q0 152 -103.5 232.5t-281.5 80.5h-362v-631z" />
<glyph unicode="Q" horiz-adv-x="1740" d="M139 715q0 148 54 283.5t148.5 237t233 162t297.5 60.5t297 -60t232 -160.5t147.5 -235.5t53.5 -283q0 -135 -44.5 -260t-127.5 -223l190 -158l-111 -121l-188 172q-198 -154 -453 -154q-159 0 -297 60t-231.5 161t-147 236t-53.5 283zM307 719q0 -163 72 -298.5 t202 -215.5t291 -80q190 0 330 108l-266 228l108 121l265 -240q125 160 125 373q0 163 -72.5 298.5t-202.5 215.5t-291 80t-290 -79t-200 -213.5t-71 -297.5z" />
<glyph unicode="R" horiz-adv-x="1480" d="M203 0v1434h616q236 0 377 -117t141 -311q0 -173 -106 -280.5t-283 -139.5l441 -586h-199l-416 557h-409v-557h-162zM365 702h440q164 0 266.5 80t102.5 217q0 134 -97 209.5t-270 75.5h-442v-582z" />
<glyph unicode="S" horiz-adv-x="1310" d="M109 209l100 119q116 -105 231 -154t260 -49q144 0 232 68.5t88 177.5q0 71 -30 118t-112 86t-231 70q-255 56 -368 149t-113 267q0 171 133.5 282t337.5 111q153 0 272.5 -43t231.5 -133l-94 -125q-190 156 -414 156q-137 0 -221 -67t-84 -167q0 -72 31 -119.5 t116.5 -87t241.5 -73.5q243 -53 355 -149t112 -259q0 -184 -137 -295.5t-353 -111.5q-329 0 -585 229z" />
<glyph unicode="T" horiz-adv-x="1327" d="M100 1284v150h1127v-150h-482v-1284h-163v1284h-482z" />
<glyph unicode="U" horiz-adv-x="1554" d="M180 600v834h162v-824q0 -231 115.5 -357t322.5 -126q202 0 317 121.5t115 351.5v834h162v-822q0 -307 -161.5 -471t-436.5 -164q-272 0 -434 162.5t-162 460.5z" />
<glyph unicode="V" horiz-adv-x="1536" d="M80 1434h180l510 -1235l512 1235h174l-616 -1444h-144z" />
<glyph unicode="W" horiz-adv-x="2267" d="M92 1434h176l410 -1194l393 1198h133l393 -1198l410 1194h170l-512 -1444h-137l-393 1163l-396 -1163h-135z" />
<glyph unicode="X" horiz-adv-x="1484" d="M94 0l551 731l-530 703h190l440 -586l437 586h188l-530 -701l551 -733h-193l-459 616l-458 -616h-187z" />
<glyph unicode="Y" horiz-adv-x="1466" d="M55 1434h197l483 -717l488 717h188l-596 -865v-569h-164v567z" />
<glyph unicode="Z" horiz-adv-x="1419" d="M137 0v109l928 1179h-897v146h1118v-109l-930 -1180h930v-145h-1149z" />
<glyph unicode="[" horiz-adv-x="899" d="M193 -266v1700h585v-123h-436v-1454h436v-123h-585z" />
<glyph unicode="\" horiz-adv-x="1040" d="M-12 1634h145l950 -1896h-145z" />
<glyph unicode="]" horiz-adv-x="899" d="M121 -143h438v1454h-438v123h586v-1700h-586v123z" />
<glyph unicode="^" horiz-adv-x="1024" d="M133 1010l318 428h122l318 -428h-139l-242 315l-242 -315h-135z" />
<glyph unicode="_" horiz-adv-x="1228" d="M-4 -199h1237v-129h-1237v129z" />
<glyph unicode="`" horiz-adv-x="1024" d="M295 1440l164 76l194 -297h-127z" />
<glyph unicode="a" horiz-adv-x="1185" d="M96 309q0 165 123.5 254.5t329.5 89.5q168 0 325 -45v37q0 141 -82 215t-233 74t-321 -78l-48 129q194 88 385 88q218 0 334.5 -109t116.5 -317v-647h-152v160q-141 -183 -382 -183q-75 0 -145 21.5t-126.5 61.5t-90.5 104.5t-34 144.5zM256 315q0 -98 77 -155.5 t189 -57.5q149 0 252 81.5t103 205.5v103q-153 45 -312 45q-147 0 -228 -59.5t-81 -162.5z" />
<glyph unicode="b" horiz-adv-x="1359" d="M176 0v1495h158v-649q159 235 405 235q96 0 186.5 -37.5t162 -106t114.5 -174.5t43 -233q0 -126 -43 -232.5t-114 -175.5t-161.5 -107t-187.5 -38q-249 0 -405 226v-203h-158zM328 530q0 -90 32 -168.5t85.5 -130.5t122.5 -82t143 -30q159 0 265.5 110.5t106.5 298.5 q0 184 -108 298t-264 114q-74 0 -143 -30t-122.5 -82.5t-85.5 -130t-32 -167.5z" />
<glyph unicode="c" horiz-adv-x="1169" d="M111 526q0 149 70.5 276.5t195.5 203t276 75.5q140 0 240.5 -50t183.5 -138l-104 -111q-73 76 -148 118t-174 42q-160 0 -269.5 -119.5t-109.5 -292.5q0 -174 112.5 -293.5t277.5 -119.5q176 0 323 157l100 -94q-88 -99 -190 -152t-242 -53q-151 0 -276 75t-195.5 201.5 t-70.5 274.5z" />
<glyph unicode="d" horiz-adv-x="1359" d="M115 528q0 101 28 190.5t77 155t113 113t138 71t150 23.5q250 0 405 -225v639h158v-1495h-158v213q-160 -236 -405 -236q-96 0 -186.5 37.5t-162 106t-114.5 174.5t-43 233zM276 530q0 -184 108.5 -297.5t264.5 -113.5q74 0 143 30t122.5 82t85.5 130.5t32 168.5 t-32 167.5t-85.5 130t-122.5 82.5t-143 30q-159 0 -266 -111t-107 -299z" />
<glyph unicode="e" horiz-adv-x="1212" d="M111 528q0 152 65 278.5t181.5 200.5t260.5 74q152 0 266 -76t171 -202t57 -283q0 -31 -2 -49h-840q17 -166 122.5 -262t250.5 -96q192 0 334 149l98 -88q-86 -97 -190 -148t-246 -51q-145 0 -265 68.5t-191.5 196t-71.5 288.5zM270 588h682q-13 155 -100.5 257.5 t-237.5 102.5q-137 0 -233 -101.5t-111 -258.5z" />
<glyph unicode="f" horiz-adv-x="751" d="M90 920v137h146v92q0 172 83 263t236 91q100 0 174 -26v-138q-96 27 -154 27q-184 0 -184 -225v-86h336v-135h-334v-920h-157v920h-146z" />
<glyph unicode="g" horiz-adv-x="1359" d="M115 580q0 150 72.5 266.5t184.5 175.5t240 59q255 0 414 -213v191h158v-875q0 -251 -144.5 -383.5t-394.5 -132.5q-268 0 -481 148l72 123q187 -136 407 -136q179 0 282 97.5t103 279.5v125q-167 -223 -416 -223q-96 0 -185 35t-158.5 97.5t-111.5 158t-42 207.5z M276 584q0 -159 107.5 -261t259.5 -102q101 0 189.5 44t144 128t55.5 189q0 106 -55.5 189.5t-144 127t-189.5 43.5q-155 0 -261 -98.5t-106 -259.5z" />
<glyph unicode="h" horiz-adv-x="1261" d="M176 0v1495h158v-621q126 207 362 207q189 0 297.5 -116t108.5 -308v-657h-158v618q0 149 -77.5 234.5t-215.5 85.5t-227.5 -92t-89.5 -240v-606h-158z" />
<glyph unicode="i" horiz-adv-x="538" d="M180 1290v174h180v-174h-180zM190 0v1059h158v-1059h-158z" />
<glyph unicode="j" horiz-adv-x="538" d="M-8 -195q37 -6 78 -6q56 0 88 35.5t32 106.5v1118h158v-1120q0 -136 -67.5 -204.5t-190.5 -68.5q-54 0 -98 10v129zM180 1290v174h180v-174h-180z" />
<glyph unicode="k" horiz-adv-x="1165" d="M176 0v1495h158v-1032l571 596h197l-445 -455l459 -604h-188l-379 494l-215 -218v-276h-158z" />
<glyph unicode="l" horiz-adv-x="538" d="M190 0v1495h158v-1495h-158z" />
<glyph unicode="m" horiz-adv-x="1947" d="M176 0v1059h158v-178q29 44 58.5 76t71 62t95 46t117.5 16q123 0 208.5 -57.5t131.5 -153.5q137 211 373 211q183 0 288 -114.5t105 -311.5v-655h-158v618q0 153 -72 236.5t-202 83.5q-125 0 -209 -88t-84 -240v-610h-156v623q0 148 -72.5 231.5t-199.5 83.5t-211 -94.5 t-84 -239.5v-604h-158z" />
<glyph unicode="n" horiz-adv-x="1261" d="M176 0v1059h158v-185q126 207 362 207q189 0 297.5 -116t108.5 -308v-657h-158v618q0 149 -77.5 234.5t-215.5 85.5t-227.5 -92t-89.5 -240v-606h-158z" />
<glyph unicode="o" horiz-adv-x="1323" d="M111 526q0 149 71 276t198.5 203t283.5 76q116 0 219 -44t175 -118.5t114 -175.5t42 -213q0 -149 -71.5 -276t-199.5 -203t-284 -76q-155 0 -281.5 75t-196.5 201t-70 275zM272 530q0 -173 113 -293t279 -120q169 0 279 118t110 291q0 174 -113.5 295t-280.5 121 q-169 0 -278 -119t-109 -293z" />
<glyph unicode="p" horiz-adv-x="1359" d="M176 -328v1387h158v-213q159 235 405 235q96 0 186.5 -37.5t162 -106t114.5 -174.5t43 -233q0 -126 -43 -232.5t-114 -175.5t-161.5 -107t-187.5 -38q-249 0 -405 226v-531h-158zM328 530q0 -90 32 -168.5t85.5 -130.5t122.5 -82t143 -30q159 0 265.5 110.5t106.5 298.5 q0 184 -108 298t-264 114q-74 0 -143 -30t-122.5 -82.5t-85.5 -130t-32 -167.5z" />
<glyph unicode="q" horiz-adv-x="1359" d="M115 528q0 101 28 190.5t77 155t113 113t138 71t150 23.5q250 0 405 -225v203h158v-1387h-158v541q-160 -236 -405 -236q-96 0 -186.5 37.5t-162 106t-114.5 174.5t-43 233zM276 530q0 -184 108.5 -297.5t264.5 -113.5q74 0 143 30t122.5 82t85.5 130.5t32 168.5 t-32 167.5t-85.5 130t-122.5 82.5t-143 30q-159 0 -266 -111t-107 -299z" />
<glyph unicode="r" horiz-adv-x="829" d="M176 0v1059h158v-277q61 138 174 220q105 76 238 75h20v-170h-12q-182 0 -301 -127.5t-119 -357.5v-422h-158z" />
<glyph unicode="s" horiz-adv-x="1019" d="M88 135l80 113q181 -135 367 -135q96 0 157.5 46t61.5 122v4q0 31 -15 56.5t-37 43t-60.5 34.5t-70.5 27.5t-82 24.5q-45 13 -72.5 21.5t-68.5 24t-67 30.5t-56 38t-46.5 48.5t-28 60.5t-11.5 76v4q0 135 101.5 219t259.5 84q96 0 197.5 -31t183.5 -85l-72 -119 q-159 102 -313 102q-93 0 -149 -43t-56 -110v-5q0 -24 9 -44.5t31.5 -38t41.5 -29.5t58 -26.5t61.5 -21.5t70.5 -22q60 -18 100 -32.5t89.5 -40.5t79 -55.5t50.5 -74.5t21 -100v-4q0 -147 -107 -232t-270 -85q-114 0 -231.5 41.5t-206.5 113.5z" />
<glyph unicode="t" horiz-adv-x="827" d="M84 920v139h147v319h158v-319h336v-139h-336v-619q0 -176 178 -176q79 0 154 37v-135q-85 -45 -191 -45q-136 0 -217.5 73t-81.5 226v639h-147z" />
<glyph unicode="u" horiz-adv-x="1261" d="M160 401v658h157v-619q0 -149 77 -234t216 -85q137 0 227.5 92.5t90.5 239.5v606h155v-1059h-155v184q-130 -207 -363 -207q-189 0 -297 116t-108 308z" />
<glyph unicode="v" horiz-adv-x="1202" d="M72 1059h174l356 -879l359 879h169l-460 -1067h-140z" />
<glyph unicode="w" horiz-adv-x="1763" d="M86 1059h168l278 -850l285 854h131l287 -854l278 850h164l-372 -1067h-138l-284 835l-287 -835h-139z" />
<glyph unicode="x" horiz-adv-x="1175" d="M80 0l416 539l-400 520h180l314 -410l313 410h176l-401 -516l418 -543h-183l-327 432l-330 -432h-176z" />
<glyph unicode="y" horiz-adv-x="1210" d="M70 1059h174l385 -883l340 883h168l-445 -1094q-67 -162 -148.5 -230.5t-203.5 -68.5q-116 0 -225 53l53 125q74 -39 166 -39q72 0 121.5 44t95.5 155z" />
<glyph unicode="z" horiz-adv-x="1138" d="M115 0v100l702 826h-678v133h893v-101l-704 -825h704v-133h-917z" />
<glyph unicode="{" horiz-adv-x="989" d="M115 526v123h53q133 0 187.5 60.5t54.5 185.5q0 18 -1 79.5t-1 76.5q0 68 10.5 118.5t39.5 98.5t78.5 83t128 64t187.5 49l25 -104q-108 -28 -171 -56t-96.5 -69t-43 -85t-9.5 -120q0 -20 1 -75.5t1 -77.5q0 -123 -54 -189.5t-159 -99.5q109 -36 161 -101t52 -188 q0 -22 -1 -78t-1 -76q0 -60 6 -98.5t24 -75t53.5 -61.5t92.5 -48.5t144 -45.5l-25 -105q-109 20 -187.5 49t-128 64t-78.5 83t-39.5 99t-10.5 119q0 15 1 76.5t1 79.5q0 125 -54.5 185t-187.5 60h-53z" />
<glyph unicode="|" horiz-adv-x="620" d="M244 -262v1896h133v-1896h-133z" />
<glyph unicode="}" horiz-adv-x="989" d="M111 -184q109 28 172 55.5t96.5 68.5t43 85t9.5 120q0 20 -1 76t-1 78q0 123 54 189.5t159 99.5q-109 36 -161 101t-52 188q0 22 1 77.5t1 75.5q0 76 -9.5 120t-42.5 85t-96.5 69t-172.5 56l26 104q109 -20 188 -49t128.5 -64t78 -82.5t39.5 -98.5t11 -119 q0 -15 -1 -76.5t-1 -79.5q0 -126 53.5 -186t185.5 -60h53v-123h-53q-132 0 -185.5 -60t-53.5 -185q0 -18 1 -79.5t1 -76.5q0 -85 -18 -146t-65.5 -114.5t-136.5 -91t-225 -62.5z" />
<glyph unicode="~" horiz-adv-x="968" d="M150 512q31 117 75.5 167t118.5 50q47 0 143.5 -42t130.5 -42q39 0 61 22t46 81l94 -27q-31 -117 -75 -167t-117 -50q-49 0 -146 42t-129 42q-39 0 -60.5 -22t-45.5 -81z" />
<glyph unicode="&#xa1;" horiz-adv-x="555" d="M184 1219v215h189v-215h-189zM186 0v117l47 911h89l49 -911v-117h-185z" />
<glyph unicode="&#xa2;" horiz-adv-x="1189" d="M119 725q0 149 71 276.5t196.5 203t275.5 75.5h26l31 166h133l-37 -184q144 -36 270 -172l-102 -107q-53 53 -99.5 86.5t-103.5 50.5l-153 -801q32 -4 51 -4q170 3 315 158l99 -92q-87 -99 -189.5 -153t-238.5 -54q-40 0 -60 4l-37 -190h-133l45 217q-161 57 -260.5 200 t-99.5 320zM279 729q0 -127 64.5 -230t170.5 -151l152 791h-13q-105 -1 -191 -56t-134.5 -148.5t-48.5 -205.5z" />
<glyph unicode="&#xa3;" horiz-adv-x="1318" d="M137 0v94l172 43v467h-172v141h172v222q0 221 120.5 354t332.5 133q151 0 254 -58t184 -163l-125 -98q-67 84 -138.5 127t-176.5 43q-137 0 -213 -90.5t-76 -247.5v-222h571v-141h-571v-461h727v-143h-1061z" />
<glyph unicode="&#xa4;" horiz-adv-x="1474" d="M115 485v129h166q-5 41 -5 101q0 62 9 121h-170v127h192q60 221 210.5 358t352.5 137q170 0 287 -73t207 -207l-123 -88q-82 115 -167.5 169t-209.5 54q-134 0 -238.5 -96t-152.5 -254h526v-127h-553q-8 -49 -8 -117q0 -35 4 -105h557v-129h-530q45 -166 156.5 -265 t261.5 -99q115 0 199.5 59t164.5 176l117 -82q-94 -142 -209.5 -220.5t-277.5 -78.5q-215 0 -370 139.5t-210 370.5h-186z" />
<glyph unicode="&#xa5;" horiz-adv-x="1404" d="M55 1434h193l457 -701l460 701h185l-523 -762h373v-127h-420v-180h420v-127h-420v-238h-155v238h-420v127h420v180h-420v127h370z" />
<glyph unicode="&#xa7;" horiz-adv-x="1294" d="M127 735q0 92 73 153.5t197 82.5q-71 36 -111 89.5t-40 119.5q0 125 102.5 199.5t274.5 74.5q139 0 259.5 -51.5t209.5 -142.5l-103 -99q-161 158 -371 158q-103 0 -156.5 -38t-53.5 -99q0 -60 72.5 -103t260.5 -88q234 -56 330 -121.5t96 -171.5q0 -92 -73 -153 t-197 -82q152 -78 152 -209q0 -125 -102.5 -199.5t-274.5 -74.5q-139 0 -259.5 51.5t-209.5 142.5l102 98q160 -157 371 -157q103 0 157 38t54 99q0 60 -73 102.5t-261 87.5q-234 56 -330 121.5t-96 171.5zM279 752q0 -56 64.5 -99t225.5 -82q128 -32 224 -32q99 0 161 41.5 t62 101.5q0 55 -64.5 97.5t-226.5 82.5q-135 33 -223 33q-99 0 -161 -41.5t-62 -101.5z" />
<glyph unicode="&#xa8;" horiz-adv-x="1024" d="M240 1219v194h184v-194h-184zM600 1219v194h184v-194h-184z" />
<glyph unicode="&#xa9;" horiz-adv-x="1699" d="M109 715q0 150 58 287t157 237t237 159.5t291 59.5t290.5 -59t235.5 -158t155.5 -235.5t57.5 -286.5q0 -200 -98 -371t-269.5 -272t-375.5 -101t-374.5 100t-267.5 270t-97 370zM176 715q0 -184 87.5 -339t242 -246t342.5 -91q189 0 344.5 92t243.5 247.5t88 340.5 q0 184 -87.5 339t-242 246t-342.5 91q-189 0 -344.5 -92t-243.5 -247.5t-88 -340.5zM477 727q0 163 110 278t275 115q96 0 163.5 -31.5t131.5 -91.5l-76 -82q-107 103 -221 103q-117 0 -192.5 -84t-75.5 -205t78.5 -206t191.5 -85q67 0 117.5 25.5t107.5 77.5l74 -72 q-65 -67 -135.5 -101t-167.5 -34q-162 0 -271.5 114.5t-109.5 278.5z" />
<glyph unicode="&#xaa;" horiz-adv-x="798" d="M119 592v96h532v-96h-532zM125 1022q0 92 68.5 142t183.5 50q81 0 164 -22v10q0 70 -42 108t-118 38q-78 0 -176 -45l-31 86q115 51 217 51q121 0 185.5 -61t64.5 -177v-354h-100v78q-74 -90 -197 -90q-89 0 -154 49t-65 137zM231 1026q0 -49 37 -76.5t94 -27.5 q74 0 126.5 40t52.5 103v49q-79 23 -156 23q-72 0 -113 -30.5t-41 -80.5z" />
<glyph unicode="&#xab;" horiz-adv-x="1126" d="M98 522v17l332 436l121 -68l-277 -375l277 -378l-121 -70zM555 522v17l332 436l119 -68l-277 -375l277 -378l-119 -70z" />
<glyph unicode="&#xad;" horiz-adv-x="835" d="M133 532v166h569v-166h-569z" />
<glyph unicode="&#xae;" horiz-adv-x="1699" d="M109 715q0 150 58 287t157 237t237 159.5t291 59.5t290.5 -59t235.5 -158t155.5 -235.5t57.5 -286.5q0 -200 -98 -371t-269.5 -272t-375.5 -101t-374.5 100t-267.5 270t-97 370zM176 715q0 -184 87.5 -339t242 -246t342.5 -91q189 0 344.5 92t243.5 247.5t88 340.5 q0 184 -87.5 339t-242 246t-342.5 91q-189 0 -344.5 -92t-243.5 -247.5t-88 -340.5zM559 358v760h340q128 0 207.5 -62t79.5 -167q0 -90 -53 -147t-144 -78l236 -306h-140l-219 287h-194v-287h-113zM672 745h217q81 0 130.5 36.5t49.5 101.5q0 63 -46 98t-128 35h-223v-271z " />
<glyph unicode="&#xaf;" horiz-adv-x="1024" d="M188 1229v137h648v-137h-648z" />
<glyph unicode="&#xb0;" horiz-adv-x="937" d="M147 1133q0 125 97.5 219t224.5 94t224.5 -94t97.5 -219t-97.5 -219.5t-224.5 -94.5t-224.5 94.5t-97.5 219.5zM266 1133q0 -84 58.5 -145.5t144.5 -61.5t144.5 61.5t58.5 145.5q0 83 -58.5 144.5t-144.5 61.5t-144.5 -61.5t-58.5 -144.5z" />
<glyph unicode="&#xb1;" horiz-adv-x="1236" d="M88 233l119 103q169 -213 424 -213q143 0 233 73t90 195q0 123 -101 192.5t-282 69.5h-147v140h151q151 0 245.5 72t94.5 194q0 110 -84.5 181t-222.5 71q-116 0 -204.5 -51.5t-165.5 -153.5l-119 86q91 129 210.5 197.5t282.5 68.5q205 0 336 -108.5t131 -276.5 q0 -68 -20.5 -125t-57.5 -97.5t-79 -68t-93 -47.5q133 -43 211 -128t78 -216q0 -178 -136.5 -297t-354.5 -119q-167 0 -306 70t-233 188z" />
<glyph unicode="&#xb4;" horiz-adv-x="1024" d="M371 1219l194 297l164 -76l-231 -221h-127z" />
<glyph unicode="&#xb5;" horiz-adv-x="1740" d="M139 715q0 148 54 283.5t148.5 237t233 162t297.5 60.5t297 -60t232 -160.5t147.5 -235.5t53.5 -283q0 -170 -70 -321.5t-195 -254.5l353 -338v-12h-238l-270 252q-143 -70 -314 -70q-159 0 -297 60t-231.5 161t-147 236t-53.5 283zM307 719q0 -163 72 -298.5t202 -215.5 t291 -80t290 79t200.5 213.5t71.5 297.5t-72.5 298.5t-202.5 215.5t-291 80t-290 -79t-200 -213.5t-71 -297.5z" />
<glyph unicode="&#xb6;" horiz-adv-x="1044" d="M98 987q0 208 149 327.5t392 119.5h217v-1434h-164v541h-22q-164 0 -292 50.5t-204 152.5t-76 243z" />
<glyph unicode="&#xb7;" horiz-adv-x="501" d="M158 508v215h188v-215h-188z" />
<glyph unicode="&#xb8;" horiz-adv-x="1024" d="M307 -248l185 268h124l-155 -337z" />
<glyph unicode="&#xba;" horiz-adv-x="798" d="M98 1137q0 127 87 217t216 90q128 0 213.5 -88.5t85.5 -214.5q0 -127 -87 -217t-216 -90q-128 0 -213.5 88.5t-85.5 214.5zM104 592v96h590v-96h-590zM209 1141q0 -87 55 -148t137 -61q83 0 136 59.5t53 145.5q0 88 -55 148.5t-138 60.5t-135.5 -59t-52.5 -146z" />
<glyph unicode="&#xbb;" horiz-adv-x="1126" d="M121 152l276 376l-276 377l119 70l331 -436v-17l-331 -438zM575 152l277 376l-277 377l121 70l332 -436v-17l-332 -438z" />
<glyph unicode="&#xbf;" horiz-adv-x="1099" d="M98 389q0 94 33.5 169t93 125t134.5 80.5t165 43.5l19 221h104l33 -332l-10 -10q-197 -4 -302.5 -81.5t-105.5 -209.5q0 -115 82 -191.5t217 -76.5q209 0 371 192l104 -100q-95 -114 -209.5 -175.5t-269.5 -61.5q-207 0 -333 114t-126 293zM504 1219v215h188v-215h-188z " />
<glyph unicode="&#xc0;" d="M80 0l653 1444h152l653 -1444h-174l-168 379h-780l-170 -379h-166zM479 524h654l-326 731zM512 1782l164 76l194 -297h-127z" />
<glyph unicode="&#xc1;" d="M80 0l653 1444h152l653 -1444h-174l-168 379h-780l-170 -379h-166zM479 524h654l-326 731zM748 1561l194 297l164 -76l-232 -221h-126z" />
<glyph unicode="&#xc2;" d="M80 0l653 1444h152l653 -1444h-174l-168 379h-780l-170 -379h-166zM479 524h654l-326 731zM522 1554l217 269h140l217 -269h-135l-154 138l-154 -138h-131z" />
<glyph unicode="&#xc3;" d="M80 0l653 1444h152l653 -1444h-174l-168 379h-780l-170 -379h-166zM473 1569q31 115 76 165t119 50q49 0 145.5 -41t128.5 -41q39 0 61 21.5t46 78.5l96 -26q-31 -115 -76 -165t-119 -50q-49 0 -145.5 40.5t-128.5 40.5q-39 0 -61 -21.5t-46 -78.5zM479 524h654l-326 731 z" />
<glyph unicode="&#xc4;" d="M80 0l653 1444h152l653 -1444h-174l-168 379h-780l-170 -379h-166zM479 524h654l-326 731zM537 1561v194h184v-194h-184zM897 1561v194h184v-194h-184z" />
<glyph unicode="&#xc5;" d="M80 0l629 1393q-51 27 -82 74t-31 104q0 84 63.5 144.5t149.5 60.5t149.5 -60.5t63.5 -144.5q0 -57 -31 -104t-82 -74l629 -1393h-174l-168 379h-780l-170 -379h-166zM479 524h654l-326 731zM682 1571q0 -53 37 -90t90 -37t90 37t37 90t-37 90t-90 37t-90 -37t-37 -90z " />
<glyph unicode="&#xc6;" horiz-adv-x="2140" d="M35 0l842 1434h1130v-148h-838v-489h746v-148h-746v-502h848v-147h-1011v379h-578l-223 -379h-170zM510 524h496v766h-50z" />
<glyph unicode="&#xc7;" horiz-adv-x="1511" d="M139 715q0 152 54.5 288.5t149 237t230.5 159t291 58.5q182 0 311.5 -57.5t247.5 -169.5l-110 -119q-100 95 -207 146t-244 51q-156 0 -283.5 -77.5t-199.5 -212.5t-72 -300t72.5 -301t200 -214.5t282.5 -78.5q140 0 246.5 51t216.5 156l107 -105q-116 -118 -243 -181.5 t-298 -70.5l-135 -292l-154 69l158 230q-179 23 -320.5 124.5t-221 261t-79.5 347.5z" />
<glyph unicode="&#xc8;" horiz-adv-x="1372" d="M203 0v1434h1036v-148h-874v-489h782v-148h-782v-502h884v-147h-1046zM465 1782l164 76l194 -297h-127z" />
<glyph unicode="&#xc9;" horiz-adv-x="1372" d="M203 0v1434h1036v-148h-874v-489h782v-148h-782v-502h884v-147h-1046zM608 1561l195 297l164 -76l-232 -221h-127z" />
<glyph unicode="&#xca;" horiz-adv-x="1372" d="M203 0v1434h1036v-148h-874v-489h782v-148h-782v-502h884v-147h-1046zM426 1561l217 268h139l217 -268h-135l-153 137l-154 -137h-131z" />
<glyph unicode="&#xcb;" horiz-adv-x="1372" d="M203 0v1434h1036v-148h-874v-489h782v-148h-782v-502h884v-147h-1046zM440 1561v194h185v-194h-185zM801 1561v194h184v-194h-184z" />
<glyph unicode="&#xcc;" horiz-adv-x="595" d="M4 1782l164 76l194 -297h-126zM217 0v1434h162v-1434h-162z" />
<glyph unicode="&#xcd;" horiz-adv-x="595" d="M217 0v1434h162v-1434h-162zM233 1561l195 297l164 -76l-232 -221h-127z" />
<glyph unicode="&#xce;" horiz-adv-x="595" d="M12 1561l217 268h140l217 -268h-135l-154 137l-154 -137h-131zM217 0v1434h162v-1434h-162z" />
<glyph unicode="&#xcf;" horiz-adv-x="595" d="M27 1561v194h184v-194h-184zM217 0v1434h162v-1434h-162zM387 1561v194h184v-194h-184z" />
<glyph unicode="&#xd0;" horiz-adv-x="1662" d="M111 647v148h153v639h498q166 0 309 -55t242 -150t155 -227t56 -283t-56 -283.5t-155 -228.5t-242 -151.5t-309 -55.5h-498v647h-153zM426 150h336q177 0 313.5 75t208.5 203t72 287q0 119 -42.5 223.5t-118.5 181t-188 120.5t-245 44h-336v-489h430v-148h-430v-497z" />
<glyph unicode="&#xd1;" d="M203 0v1434h151l903 -1149v1149h158v-1434h-129l-926 1176v-1176h-157zM473 1569q31 115 76 165t119 50q49 0 145.5 -41t128.5 -41q39 0 61 21.5t46 78.5l96 -26q-31 -115 -76 -165t-119 -50q-49 0 -145.5 40.5t-128.5 40.5q-39 0 -61 -21.5t-46 -78.5z" />
<glyph unicode="&#xd2;" horiz-adv-x="1740" d="M139 715q0 148 54 283.5t148.5 237t233 162t297.5 60.5t297 -60t232 -160.5t147.5 -235.5t53.5 -283t-54 -283.5t-149 -237.5t-233.5 -162.5t-297.5 -60.5t-297 60t-231.5 161t-147 236t-53.5 283zM307 719q0 -163 72 -298.5t202 -215.5t291 -80t290 79t200.5 213.5 t71.5 297.5t-72.5 298.5t-202.5 215.5t-291 80t-290 -79t-200 -213.5t-71 -297.5zM565 1782l164 76l195 -297h-127z" />
<glyph unicode="&#xd3;" horiz-adv-x="1740" d="M139 715q0 148 54 283.5t148.5 237t233 162t297.5 60.5t297 -60t232 -160.5t147.5 -235.5t53.5 -283t-54 -283.5t-149 -237.5t-233.5 -162.5t-297.5 -60.5t-297 60t-231.5 161t-147 236t-53.5 283zM307 719q0 -163 72 -298.5t202 -215.5t291 -80t290 79t200.5 213.5 t71.5 297.5t-72.5 298.5t-202.5 215.5t-291 80t-290 -79t-200 -213.5t-71 -297.5zM817 1561l195 297l164 -76l-232 -221h-127z" />
<glyph unicode="&#xd4;" horiz-adv-x="1740" d="M139 715q0 148 54 283.5t148.5 237t233 162t297.5 60.5t297 -60t232 -160.5t147.5 -235.5t53.5 -283t-54 -283.5t-149 -237.5t-233.5 -162.5t-297.5 -60.5t-297 60t-231.5 161t-147 236t-53.5 283zM307 719q0 -163 72 -298.5t202 -215.5t291 -80t290 79t200.5 213.5 t71.5 297.5t-72.5 298.5t-202.5 215.5t-291 80t-290 -79t-200 -213.5t-71 -297.5zM584 1561l217 268h139l217 -268h-135l-154 137l-153 -137h-131z" />
<glyph unicode="&#xd5;" horiz-adv-x="1740" d="M139 715q0 148 54 283.5t148.5 237t233 162t297.5 60.5t297 -60t232 -160.5t147.5 -235.5t53.5 -283t-54 -283.5t-149 -237.5t-233.5 -162.5t-297.5 -60.5t-297 60t-231.5 161t-147 236t-53.5 283zM307 719q0 -163 72 -298.5t202 -215.5t291 -80t290 79t200.5 213.5 t71.5 297.5t-72.5 298.5t-202.5 215.5t-291 80t-290 -79t-200 -213.5t-71 -297.5zM535 1569q31 116 76 165.5t118 49.5q49 0 146 -41t129 -41q39 0 60.5 21.5t45.5 78.5l96 -26q-31 -116 -76 -165.5t-118 -49.5q-49 0 -146 40.5t-129 40.5q-39 0 -60.5 -21.5t-45.5 -78.5z " />
<glyph unicode="&#xd6;" horiz-adv-x="1740" d="M139 715q0 148 54 283.5t148.5 237t233 162t297.5 60.5t297 -60t232 -160.5t147.5 -235.5t53.5 -283t-54 -283.5t-149 -237.5t-233.5 -162.5t-297.5 -60.5t-297 60t-231.5 161t-147 236t-53.5 283zM307 719q0 -163 72 -298.5t202 -215.5t291 -80t290 79t200.5 213.5 t71.5 297.5t-72.5 298.5t-202.5 215.5t-291 80t-290 -79t-200 -213.5t-71 -297.5zM598 1561v194h184v-194h-184zM958 1561v194h185v-194h-185z" />
<glyph unicode="&#xd8;" horiz-adv-x="1740" d="M123 -10l203 221q-90 100 -138.5 231t-48.5 273q0 148 54 283.5t148.5 237t233 162t297.5 60.5q262 0 449 -151l127 137h170l-203 -223q89 -98 138 -229t49 -273q0 -148 -54 -283.5t-149 -237.5t-233.5 -162.5t-297.5 -60.5q-260 0 -448 152l-127 -137h-170zM305 719 q0 -221 129 -385l785 854q-155 125 -351 125q-161 0 -291 -80t-201 -215.5t-71 -298.5zM522 246q155 -125 350 -125q161 0 291 80t201.5 215.5t71.5 298.5q0 221 -129 385z" />
<glyph unicode="&#xd9;" horiz-adv-x="1554" d="M180 600v834h162v-824q0 -231 115.5 -357t322.5 -126q202 0 317 121.5t115 351.5v834h162v-822q0 -307 -161.5 -471t-436.5 -164q-272 0 -434 162.5t-162 460.5zM494 1772l163 75l195 -297h-127z" />
<glyph unicode="&#xda;" horiz-adv-x="1554" d="M180 600v834h162v-824q0 -231 115.5 -357t322.5 -126q202 0 317 121.5t115 351.5v834h162v-822q0 -307 -161.5 -471t-436.5 -164q-272 0 -434 162.5t-162 460.5zM702 1550l195 297l164 -75l-232 -222h-127z" />
<glyph unicode="&#xdb;" horiz-adv-x="1554" d="M180 600v834h162v-824q0 -231 115.5 -357t322.5 -126q202 0 317 121.5t115 351.5v834h162v-822q0 -307 -161.5 -471t-436.5 -164q-272 0 -434 162.5t-162 460.5zM489 1554l218 269h139l217 -269h-135l-154 138l-153 -138h-132z" />
<glyph unicode="&#xdc;" horiz-adv-x="1554" d="M180 600v834h162v-824q0 -231 115.5 -357t322.5 -126q202 0 317 121.5t115 351.5v834h162v-822q0 -307 -161.5 -471t-436.5 -164q-272 0 -434 162.5t-162 460.5zM504 1554v195h184v-195h-184zM864 1554v195h185v-195h-185z" />
<glyph unicode="&#xdd;" horiz-adv-x="1466" d="M55 1434h197l483 -717l488 717h188l-596 -865v-569h-164v567zM674 1550l194 297l164 -75l-231 -222h-127z" />
<glyph unicode="&#xde;" horiz-adv-x="1378" d="M203 0v1434h162v-246h374q245 0 391 -122.5t146 -334.5q0 -113 -45 -204.5t-122.5 -149.5t-178.5 -88.5t-217 -30.5h-348v-258h-162zM365 406h354q178 0 285.5 88t107.5 231q0 152 -103.5 232.5t-281.5 80.5h-362v-632z" />
<glyph unicode="&#xdf;" horiz-adv-x="1269" d="M176 0v1026q0 218 126 350.5t339 132.5q190 0 306 -105t116 -265q0 -71 -24 -132.5t-65.5 -107.5t-90 -79.5t-105.5 -57.5q77 -17 141 -46t118 -72.5t84 -107t30 -141.5q0 -191 -148 -296.5t-405 -102.5v127q185 5 288 74.5t103 197.5q0 121 -103.5 192.5t-287.5 90.5 v117q303 111 303 333q0 108 -74 175t-194 67q-132 0 -215.5 -93.5t-83.5 -248.5v-1028h-158z" />
<glyph unicode="&#xe0;" horiz-adv-x="1185" d="M96 309q0 165 123.5 254.5t329.5 89.5q168 0 325 -45v37q0 141 -82 215t-233 74t-321 -78l-48 129q194 88 385 88q218 0 334.5 -109t116.5 -317v-647h-152v160q-141 -183 -382 -183q-75 0 -145 21.5t-126.5 61.5t-90.5 104.5t-34 144.5zM256 315q0 -98 77 -155.5 t189 -57.5q149 0 252 81.5t103 205.5v103q-153 45 -312 45q-147 0 -228 -59.5t-81 -162.5zM303 1440l164 76l195 -297h-127z" />
<glyph unicode="&#xe1;" horiz-adv-x="1185" d="M96 309q0 165 123.5 254.5t329.5 89.5q168 0 325 -45v37q0 141 -82 215t-233 74t-321 -78l-48 129q194 88 385 88q218 0 334.5 -109t116.5 -317v-647h-152v160q-141 -183 -382 -183q-75 0 -145 21.5t-126.5 61.5t-90.5 104.5t-34 144.5zM256 315q0 -98 77 -155.5 t189 -57.5q149 0 252 81.5t103 205.5v103q-153 45 -312 45q-147 0 -228 -59.5t-81 -162.5zM508 1219l194 297l164 -76l-231 -221h-127z" />
<glyph unicode="&#xe2;" horiz-adv-x="1185" d="M96 309q0 165 123.5 254.5t329.5 89.5q168 0 325 -45v37q0 141 -82 215t-233 74t-321 -78l-48 129q194 88 385 88q218 0 334.5 -109t116.5 -317v-647h-152v160q-141 -183 -382 -183q-75 0 -145 21.5t-126.5 61.5t-90.5 104.5t-34 144.5zM256 315q0 -98 77 -155.5 t189 -57.5q149 0 252 81.5t103 205.5v103q-153 45 -312 45q-147 0 -228 -59.5t-81 -162.5zM309 1219l217 268h140l217 -268h-135l-154 137l-154 -137h-131z" />
<glyph unicode="&#xe3;" horiz-adv-x="1185" d="M96 309q0 165 123.5 254.5t329.5 89.5q168 0 325 -45v37q0 141 -82 215t-233 74t-321 -78l-48 129q194 88 385 88q218 0 334.5 -109t116.5 -317v-647h-152v160q-141 -183 -382 -183q-75 0 -145 21.5t-126.5 61.5t-90.5 104.5t-34 144.5zM256 315q0 -98 77 -155.5 t189 -57.5q149 0 252 81.5t103 205.5v103q-153 45 -312 45q-147 0 -228 -59.5t-81 -162.5zM262 1227q31 115 76 165t119 50q49 0 145.5 -41t128.5 -41q39 0 61 21.5t46 78.5l96 -26q-31 -115 -76 -165t-119 -50q-49 0 -145.5 40.5t-128.5 40.5q-39 0 -61 -21.5t-46 -78.5z " />
<glyph unicode="&#xe4;" horiz-adv-x="1185" d="M96 309q0 165 123.5 254.5t329.5 89.5q168 0 325 -45v37q0 141 -82 215t-233 74t-321 -78l-48 129q194 88 385 88q218 0 334.5 -109t116.5 -317v-647h-152v160q-141 -183 -382 -183q-75 0 -145 21.5t-126.5 61.5t-90.5 104.5t-34 144.5zM256 315q0 -98 77 -155.5 t189 -57.5q149 0 252 81.5t103 205.5v103q-153 45 -312 45q-147 0 -228 -59.5t-81 -162.5zM324 1219v194h184v-194h-184zM684 1219v194h184v-194h-184z" />
<glyph unicode="&#xe5;" horiz-adv-x="1185" d="M96 309q0 165 123.5 254.5t329.5 89.5q168 0 325 -45v37q0 141 -82 215t-233 74t-321 -78l-48 129q194 88 385 88q218 0 334.5 -109t116.5 -317v-647h-152v160q-141 -183 -382 -183q-75 0 -145 21.5t-126.5 61.5t-90.5 104.5t-34 144.5zM256 315q0 -98 77 -155.5 t189 -57.5q149 0 252 81.5t103 205.5v103q-153 45 -312 45q-147 0 -228 -59.5t-81 -162.5zM383 1419q0 84 63.5 144.5t149.5 60.5t149.5 -60.5t63.5 -144.5t-63.5 -144.5t-149.5 -60.5t-149.5 60.5t-63.5 144.5zM469 1419q0 -53 37.5 -90t89.5 -37t89.5 37t37.5 90t-37.5 90 t-89.5 37t-89.5 -37t-37.5 -90z" />
<glyph unicode="&#xe6;" horiz-adv-x="1951" d="M96 309q0 165 122 254.5t323 89.5q156 0 313 -45v37q0 142 -79 215.5t-226 73.5q-84 0 -155.5 -19.5t-155.5 -58.5l-48 129q98 44 183.5 66t191.5 22q310 0 389 -227q64 108 171 171.5t235 63.5q151 0 264.5 -76t171 -202t57.5 -283q0 -13 -4 -49h-837q17 -166 122 -262 t248 -96q192 0 334 149l99 -88q-84 -96 -189 -147.5t-248 -51.5q-127 0 -238 56.5t-182 156.5q-204 -211 -462 -211q-107 0 -196 36.5t-146.5 113.5t-57.5 182zM256 317q0 -98 73.5 -155.5t184.5 -57.5q214 0 381 189q-37 90 -43 201q-168 43 -295 43q-143 0 -222 -59 t-79 -161zM1010 588h682q-13 155 -100 257.5t-236 102.5q-138 0 -234.5 -101.5t-111.5 -258.5z" />
<glyph unicode="&#xe7;" horiz-adv-x="1169" d="M111 526q0 149 70.5 276.5t195.5 203t276 75.5q140 0 240.5 -50t183.5 -138l-104 -111q-73 76 -148 118t-174 42q-160 0 -269.5 -119.5t-109.5 -292.5q0 -174 112.5 -293.5t277.5 -119.5q176 0 323 157l100 -94q-84 -93 -178.5 -145.5t-222.5 -59.5l-135 -292l-154 69 l160 234q-193 34 -318.5 186.5t-125.5 353.5z" />
<glyph unicode="&#xe8;" horiz-adv-x="1212" d="M111 528q0 152 65 278.5t181.5 200.5t260.5 74q152 0 266 -76t171 -202t57 -283q0 -31 -2 -49h-840q17 -166 122.5 -262t250.5 -96q192 0 334 149l98 -88q-86 -97 -190 -148t-246 -51q-145 0 -265 68.5t-191.5 196t-71.5 288.5zM270 588h682q-13 155 -100.5 257.5 t-237.5 102.5q-137 0 -233 -101.5t-111 -258.5zM334 1440l164 76l194 -297h-127z" />
<glyph unicode="&#xe9;" horiz-adv-x="1212" d="M111 528q0 152 65 278.5t181.5 200.5t260.5 74q152 0 266 -76t171 -202t57 -283q0 -31 -2 -49h-840q17 -166 122.5 -262t250.5 -96q192 0 334 149l98 -88q-86 -97 -190 -148t-246 -51q-145 0 -265 68.5t-191.5 196t-71.5 288.5zM270 588h682q-13 155 -100.5 257.5 t-237.5 102.5q-137 0 -233 -101.5t-111 -258.5zM520 1219l195 297l164 -76l-232 -221h-127z" />
<glyph unicode="&#xea;" horiz-adv-x="1212" d="M111 528q0 152 65 278.5t181.5 200.5t260.5 74q152 0 266 -76t171 -202t57 -283q0 -31 -2 -49h-840q17 -166 122.5 -262t250.5 -96q192 0 334 149l98 -88q-86 -97 -190 -148t-246 -51q-145 0 -265 68.5t-191.5 196t-71.5 288.5zM270 588h682q-13 155 -100.5 257.5 t-237.5 102.5q-137 0 -233 -101.5t-111 -258.5zM326 1219l217 268h139l217 -268h-135l-154 137l-153 -137h-131z" />
<glyph unicode="&#xeb;" horiz-adv-x="1212" d="M111 528q0 152 65 278.5t181.5 200.5t260.5 74q152 0 266 -76t171 -202t57 -283q0 -31 -2 -49h-840q17 -166 122.5 -262t250.5 -96q192 0 334 149l98 -88q-86 -97 -190 -148t-246 -51q-145 0 -265 68.5t-191.5 196t-71.5 288.5zM270 588h682q-13 155 -100.5 257.5 t-237.5 102.5q-137 0 -233 -101.5t-111 -258.5zM340 1219v194h184v-194h-184zM700 1219v194h185v-194h-185z" />
<glyph unicode="&#xec;" horiz-adv-x="538" d="M-23 1440l164 76l195 -297h-127zM190 0v1059h158v-1059h-158z" />
<glyph unicode="&#xed;" horiz-adv-x="538" d="M190 0v1059h158v-1059h-158zM205 1219l194 297l164 -76l-231 -221h-127z" />
<glyph unicode="&#xee;" horiz-adv-x="538" d="M-18 1219l217 268h139l217 -268h-135l-154 137l-153 -137h-131zM190 0v1059h158v-1059h-158z" />
<glyph unicode="&#xef;" horiz-adv-x="538" d="M-4 1219v194h184v-194h-184zM190 0v1059h158v-1059h-158zM356 1219v194h185v-194h-185z" />
<glyph unicode="&#xf0;" horiz-adv-x="1296" d="M111 504q0 107 39 200t105 156t154.5 99t186.5 36q100 0 177.5 -29t154.5 -83l-269 377l-262 -130l-73 97l268 125l-103 143h189l53 -80l203 98l72 -96l-209 -96l207 -305q92 -135 136 -249t44 -251q0 -145 -65.5 -267.5t-191.5 -198t-288 -75.5q-149 0 -271 72 t-189.5 193t-67.5 264zM270 498q0 -155 108.5 -269t270.5 -114q163 0 268 113t105 272q0 154 -111.5 262t-277.5 108q-164 0 -263.5 -106t-99.5 -266z" />
<glyph unicode="&#xf1;" horiz-adv-x="1261" d="M176 0v1059h158v-185q126 207 362 207q189 0 297.5 -116t108.5 -308v-657h-158v618q0 149 -77.5 234.5t-215.5 85.5t-227.5 -92t-89.5 -240v-606h-158zM303 1227q31 115 76 165t119 50q49 0 145.5 -41t128.5 -41q39 0 61 21.5t46 78.5l96 -26q-31 -115 -76 -165t-119 -50 q-49 0 -145.5 40.5t-128.5 40.5q-39 0 -61 -21.5t-46 -78.5z" />
<glyph unicode="&#xf2;" horiz-adv-x="1323" d="M111 526q0 149 71 276t198.5 203t283.5 76q116 0 219 -44t175 -118.5t114 -175.5t42 -213q0 -149 -71.5 -276t-199.5 -203t-284 -76q-155 0 -281.5 75t-196.5 201t-70 275zM272 530q0 -173 113 -293t279 -120q169 0 279 118t110 291q0 174 -113.5 295t-280.5 121 q-169 0 -278 -119t-109 -293zM367 1440l163 76l195 -297h-127z" />
<glyph unicode="&#xf3;" horiz-adv-x="1323" d="M111 526q0 149 71 276t198.5 203t283.5 76q116 0 219 -44t175 -118.5t114 -175.5t42 -213q0 -149 -71.5 -276t-199.5 -203t-284 -76q-155 0 -281.5 75t-196.5 201t-70 275zM272 530q0 -173 113 -293t279 -120q169 0 279 118t110 291q0 174 -113.5 295t-280.5 121 q-169 0 -278 -119t-109 -293zM600 1219l195 297l163 -76l-231 -221h-127z" />
<glyph unicode="&#xf4;" horiz-adv-x="1323" d="M111 526q0 149 71 276t198.5 203t283.5 76q116 0 219 -44t175 -118.5t114 -175.5t42 -213q0 -149 -71.5 -276t-199.5 -203t-284 -76q-155 0 -281.5 75t-196.5 201t-70 275zM272 530q0 -173 113 -293t279 -120q169 0 279 118t110 291q0 174 -113.5 295t-280.5 121 q-169 0 -278 -119t-109 -293zM375 1219l217 268h139l217 -268h-135l-154 137l-153 -137h-131z" />
<glyph unicode="&#xf5;" horiz-adv-x="1323" d="M111 526q0 149 71 276t198.5 203t283.5 76q116 0 219 -44t175 -118.5t114 -175.5t42 -213q0 -149 -71.5 -276t-199.5 -203t-284 -76q-155 0 -281.5 75t-196.5 201t-70 275zM272 530q0 -173 113 -293t279 -120q169 0 279 118t110 291q0 174 -113.5 295t-280.5 121 q-169 0 -278 -119t-109 -293zM326 1227q31 116 76 165.5t118 49.5q49 0 146 -41t129 -41q39 0 60.5 21.5t45.5 78.5l96 -26q-31 -116 -76 -165.5t-118 -49.5q-49 0 -146 40.5t-129 40.5q-39 0 -60.5 -21.5t-45.5 -78.5z" />
<glyph unicode="&#xf6;" horiz-adv-x="1323" d="M111 526q0 149 71 276t198.5 203t283.5 76q116 0 219 -44t175 -118.5t114 -175.5t42 -213q0 -149 -71.5 -276t-199.5 -203t-284 -76q-155 0 -281.5 75t-196.5 201t-70 275zM272 530q0 -173 113 -293t279 -120q169 0 279 118t110 291q0 174 -113.5 295t-280.5 121 q-169 0 -278 -119t-109 -293zM389 1219v194h184v-194h-184zM750 1219v194h184v-194h-184z" />
<glyph unicode="&#xf8;" horiz-adv-x="1323" d="M80 -10l162 174q-131 157 -131 362q0 149 71 276t198.5 203t283.5 76q191 0 329 -110l92 100h160l-164 -176q133 -152 133 -365q0 -149 -71.5 -276t-199.5 -203t-284 -76q-185 0 -329 109l-92 -94h-158zM268 530q0 -141 80 -251l549 579q-99 86 -238 86 q-170 0 -280.5 -119.5t-110.5 -294.5zM426 197q105 -84 238 -84q171 0 281 118.5t110 294.5q0 144 -80 254z" />
<glyph unicode="&#xf9;" horiz-adv-x="1261" d="M160 401v658h157v-619q0 -149 77 -234t216 -85q137 0 227.5 92.5t90.5 239.5v606h155v-1059h-155v184q-130 -207 -363 -207q-189 0 -297 116t-108 308zM350 1432l164 75l195 -297h-127z" />
<glyph unicode="&#xfa;" horiz-adv-x="1261" d="M160 401v658h157v-619q0 -149 77 -234t216 -85q137 0 227.5 92.5t90.5 239.5v606h155v-1059h-155v184q-130 -207 -363 -207q-189 0 -297 116t-108 308zM545 1210l194 297l164 -75l-231 -222h-127z" />
<glyph unicode="&#xfb;" horiz-adv-x="1261" d="M160 401v658h157v-619q0 -149 77 -234t216 -85q137 0 227.5 92.5t90.5 239.5v606h155v-1059h-155v184q-130 -207 -363 -207q-189 0 -297 116t-108 308zM346 1219l217 268h139l218 -268h-136l-153 137l-154 -137h-131z" />
<glyph unicode="&#xfc;" horiz-adv-x="1261" d="M160 401v658h157v-619q0 -149 77 -234t216 -85q137 0 227.5 92.5t90.5 239.5v606h155v-1059h-155v184q-130 -207 -363 -207q-189 0 -297 116t-108 308zM360 1219v194h185v-194h-185zM721 1219v194h184v-194h-184z" />
<glyph unicode="&#xfd;" horiz-adv-x="1210" d="M70 1059h174l385 -883l340 883h168l-445 -1094q-67 -162 -148.5 -230.5t-203.5 -68.5q-116 0 -225 53l53 125q74 -39 166 -39q72 0 121.5 44t95.5 155zM547 1210l194 297l164 -75l-231 -222h-127z" />
<glyph unicode="&#xfe;" horiz-adv-x="1359" d="M176 -328v1823h158v-649q159 235 405 235q96 0 186.5 -37.5t162 -106t114.5 -174.5t43 -233q0 -126 -43 -232.5t-114 -175.5t-161.5 -107t-187.5 -38q-249 0 -405 226v-531h-158zM328 530q0 -90 32 -168.5t85.5 -130.5t122.5 -82t143 -30q159 0 265.5 110.5t106.5 298.5 q0 184 -108 298t-264 114q-74 0 -143 -30t-122.5 -82.5t-85.5 -130t-32 -167.5z" />
<glyph unicode="&#xff;" horiz-adv-x="1210" d="M70 1059h174l385 -883l340 883h168l-445 -1094q-67 -162 -148.5 -230.5t-203.5 -68.5q-116 0 -225 53l53 125q74 -39 166 -39q72 0 121.5 44t95.5 155zM334 1219v194h184v-194h-184zM694 1219v194h185v-194h-185z" />
<glyph unicode="&#x152;" horiz-adv-x="2316" d="M139 715q0 151 56 283.5t155 228.5t242 151.5t309 55.5h1282v-148h-837v-489h745v-148h-745v-502h847v-147h-1292q-166 0 -309 55t-242 150t-155 227t-56 283zM307 719q0 -119 42.5 -223.5t118.5 -181t188 -120.5t245 -44h283v1134h-283q-177 0 -313.5 -75t-208.5 -203 t-72 -287z" />
<glyph unicode="&#x153;" horiz-adv-x="2148" d="M111 526q0 149 71.5 276.5t198 203t278.5 75.5q153 0 276 -77.5t189 -206.5q61 130 175.5 207t259.5 77q150 0 262.5 -76t169.5 -202t57 -283q0 -31 -2 -49h-838q17 -167 121.5 -262.5t249.5 -95.5q192 0 334 149l98 -88q-84 -96 -188.5 -147.5t-245.5 -51.5 q-148 0 -270 77t-185 210q-66 -130 -190.5 -208.5t-278.5 -78.5q-150 0 -275 74.5t-196 201t-71 275.5zM272 530q0 -173 112.5 -293t277.5 -120q168 0 276.5 118t108.5 291q0 174 -112.5 295t-277.5 121q-168 0 -276.5 -119t-108.5 -293zM1206 588h682q-13 155 -100 257.5 t-236 102.5q-138 0 -234.5 -101.5t-111.5 -258.5z" />
<glyph unicode="&#x178;" horiz-adv-x="1466" d="M55 1434h197l483 -717l488 717h188l-596 -865v-569h-164v567zM461 1554v195h184v-195h-184zM821 1554v195h185v-195h-185z" />
<glyph unicode="&#x2c6;" horiz-adv-x="1024" d="M225 1219l217 268h140l217 -268h-135l-154 137l-154 -137h-131z" />
<glyph unicode="&#x2dc;" horiz-adv-x="1024" d="M176 1227q31 115 76 165t119 50q49 0 145.5 -41t128.5 -41q39 0 61 21.5t46 78.5l96 -26q-31 -115 -76 -165t-119 -50q-49 0 -145.5 40.5t-128.5 40.5q-39 0 -61 -21.5t-46 -78.5z" />
<glyph unicode="&#x2000;" horiz-adv-x="929" />
<glyph unicode="&#x2001;" horiz-adv-x="1858" />
<glyph unicode="&#x2002;" horiz-adv-x="929" />
<glyph unicode="&#x2003;" horiz-adv-x="1858" />
<glyph unicode="&#x2004;" horiz-adv-x="619" />
<glyph unicode="&#x2005;" horiz-adv-x="464" />
<glyph unicode="&#x2006;" horiz-adv-x="309" />
<glyph unicode="&#x2007;" horiz-adv-x="309" />
<glyph unicode="&#x2008;" horiz-adv-x="232" />
<glyph unicode="&#x2009;" horiz-adv-x="371" />
<glyph unicode="&#x200a;" horiz-adv-x="103" />
<glyph unicode="&#x2010;" horiz-adv-x="835" d="M133 532v166h569v-166h-569z" />
<glyph unicode="&#x2011;" horiz-adv-x="835" d="M133 532v166h569v-166h-569z" />
<glyph unicode="&#x2012;" horiz-adv-x="835" d="M133 532v166h569v-166h-569z" />
<glyph unicode="&#x2013;" horiz-adv-x="1081" d="M133 537v157h815v-157h-815z" />
<glyph unicode="&#x2014;" horiz-adv-x="1839" d="M133 537v157h1573v-157h-1573z" />
<glyph unicode="&#x2018;" horiz-adv-x="501" d="M147 979v184q0 123 54 188.5t172 92.5l24 -72q-77 -28 -109 -70t-28 -108h76v-215h-189z" />
<glyph unicode="&#x2019;" horiz-adv-x="501" d="M104 1040q77 28 110.5 71t27.5 108h-74v215h188v-185q0 -123 -54 -188t-173 -92z" />
<glyph unicode="&#x201a;" horiz-adv-x="501" d="M94 -178q77 28 110 70t27 108h-73v215h188v-184q0 -123 -54 -188.5t-173 -92.5z" />
<glyph unicode="&#x201c;" horiz-adv-x="911" d="M147 979v184q0 123 54 188.5t172 92.5l24 -72q-77 -28 -109 -70t-28 -108h76v-215h-189zM557 979v184q0 123 53.5 188.5t171.5 92.5l25 -72q-77 -28 -109 -70t-28 -108h73v-215h-186z" />
<glyph unicode="&#x201d;" horiz-adv-x="911" d="M104 1040q77 28 110.5 71t27.5 108h-74v215h188v-185q0 -123 -54 -188t-173 -92zM514 1040q77 28 110 70.5t27 108.5h-73v215h186v-185q0 -123 -53.5 -188t-171.5 -92z" />
<glyph unicode="&#x201e;" horiz-adv-x="911" d="M94 -178q77 28 110 70t27 108h-73v215h188v-184q0 -123 -54 -188.5t-173 -92.5zM504 -178q77 28 110 70t27 108h-74v215h187v-184q0 -123 -54 -188.5t-172 -92.5z" />
<glyph unicode="&#x2022;" horiz-adv-x="978" d="M221 721q0 110 79 189t189 79t189.5 -79t79.5 -189t-79.5 -189t-189.5 -79t-189 79t-79 189z" />
<glyph unicode="&#x2026;" horiz-adv-x="1480" d="M158 0v211h182v-211h-182zM649 0v211h182v-211h-182zM1141 0v211h184v-211h-184z" />
<glyph unicode="&#x202f;" horiz-adv-x="371" />
<glyph unicode="&#x2039;" horiz-adv-x="671" d="M98 522v17l332 436l121 -68l-277 -375l277 -378l-121 -70z" />
<glyph unicode="&#x203a;" horiz-adv-x="671" d="M121 152l276 376l-276 377l119 70l331 -436v-17l-331 -438z" />
<glyph unicode="&#x205f;" horiz-adv-x="464" />
<glyph unicode="&#x2122;" horiz-adv-x="1413" d="M53 1348v86h496v-86h-203v-545h-90v545h-203zM688 803v631h96l226 -347l223 347h94v-631h-88v483l-225 -342h-13l-223 342v-483h-90z" />
<glyph unicode="&#x25fc;" horiz-adv-x="1054" d="M0 0v1055h1055v-1055h-1055z" />
<glyph unicode="&#xfb01;" horiz-adv-x="1292" d="M90 920v137h146v92q0 172 83 263t236 91q100 0 174 -26v-138q-96 27 -154 27q-184 0 -184 -225v-86h336v-135h-334v-920h-157v920h-146zM932 1290v174h180v-174h-180zM944 0v1059h156v-1059h-156z" />
<glyph unicode="&#xfb02;" horiz-adv-x="1292" d="M90 920v137h146v92q0 172 83 263t236 91q100 0 174 -26v-138q-96 27 -154 27q-184 0 -184 -225v-86h336v-135h-334v-920h-157v920h-146zM944 0v1495h156v-1495h-156z" />
</font>
</defs>
</svg>
